Aller au contenu principal
Sujet: [DVD] Live in Montreal 2010 (Lu 11240 fois) sujet précédent - sujet suivant


Re : [DVD] Live in Montreal 2010

Répondre #17
Oups  :-[
Désormais je ne posterai plus avant d'avoir fait mon footing!

Re : [DVD] Live in Montreal 2010

Répondre #18
Et bien ça y est le DVD spécial Europe est en précommande chez Amazon, livraison prévue pour le 10 octobre.
Je vais quand même attendre de voir Nikki le 14 à Toulouse avant de le commander !  ;)


Re : Re : Re : [DVD] Live in Montreal 2010

Répondre #20
Et bien ça y est le DVD spécial Europe est en précommande chez Amazon, livraison prévue pour le 10 octobre.
Je vais quand même attendre de voir Nikki le 14 à Toulouse avant de le commander !  ;)

avec sous-titre en italien !
J'avais pas vu, je vais donc attendre les sous-titres français... ou canadiens...  ;)

Re : [DVD] Live in Montreal 2010

Répondre #21
Pour ceux qui savent extraire l'audio d'un DVD, je viens de me faire un fichier Cue Sheet pour découper les chansons du DVD.
Ca permet de se faire un CD audio d'excellente qualité (piste audio du DVD = PCM 48Khz). Perso je compresse ça en flac pour mon baladeur, c'est nickel chrome.
Enjoy!

REM GENRE Jazz
REM DATE 2010
PERFORMER "Nikki Yanofsky"
TITLE "Live in Montreal"
FILE "title00_Track2.wav" WAVE
  TRACK 01 AUDIO
    TITLE "The Wind Cries Mary"
    INDEX 01 00:00:00
  TRACK 02 AUDIO
    TITLE "Cool My Heels"
    INDEX 01 03:09:52
  TRACK 03 AUDIO
    TITLE "Airmail Special"
    INDEX 01 06:39:43
  TRACK 04 AUDIO
    TITLE "First Lady"
    INDEX 01 10:58:61
  TRACK 05 AUDIO
    TITLE "Never Make It On Time"
    INDEX 01 15:01:14
  TRACK 06 AUDIO
    TITLE "Ooh Child"
    INDEX 01 17:47:64
  TRACK 07 AUDIO
    TITLE "For Another Day"
    INDEX 01 21:18:05
  TRACK 08 AUDIO
    TITLE "Love's In Need Of Love Today"
    INDEX 01 24:26:31
  TRACK 09 AUDIO
    TITLE "Over The Rainbow"
    INDEX 01 30:30:10
  TRACK 10 AUDIO
    TITLE "Lullaby Of Birdland"
    INDEX 01 35:23:37
  TRACK 11 AUDIO
    TITLE "On The Sunny Side Of The Street/Fool In The Rain"
    INDEX 01 38:15:41
  TRACK 12 AUDIO
    TITLE "Old MacDonald"
    INDEX 01 41:14:02
  TRACK 13 AUDIO
    TITLE "You Haven't Done Nothin'"
    INDEX 01 43:39:33
  TRACK 14 AUDIO
    TITLE "Muddy Water"
    INDEX 01 47:26:16
  TRACK 15 AUDIO
    TITLE "God Bless The Child"
    INDEX 01 50:35:26
  TRACK 16 AUDIO
    TITLE "Take The 'A' Train "
    INDEX 01 55:46:44
  TRACK 17 AUDIO
    TITLE "New To Me"
    INDEX 01 60:14:27
  TRACK 18 AUDIO
    TITLE "Everything I've Got"
    INDEX 01 63:08:17
  TRACK 19 AUDIO
    TITLE "You'll Have To Swing It (Mr. Paganini)"
    INDEX 01 65:56:58
  TRACK 20 AUDIO
    TITLE "Thinking Of Someone"
    INDEX 01 70:30:51
  TRACK 21 AUDIO
    TITLE "The Circle Game"
    INDEX 01 73:39:63
  TRACK 22 AUDIO
    TITLE "I Got Rhythm"
    INDEX 01 78:23:49

Re : [DVD] Live in Montreal 2010

Répondre #22
J'ai hâte de le recevoir... Le visionnage est prévu pour le week-end du 5 novembre :)